BILL36
隐世仙人♂

[2024] [大陆] [剧情] [WEB-1080P] 家族荣耀之继承者[第16集][国粤多音轨/中文字幕].Modern.Dynasty.S02.2024.1080p.WEB-DL.H264.AAC.2Audio-

-->

完整标题:家族荣耀之继承者[第16集][国粤多音轨/中文字幕].Modern.Dynasty.S02.2024.1080p.WEB-DL.H264.AAC.2Audio-BlackTV 0.30GB



◎标  题 家族荣耀之继承者
◎译  名 家族继承者 / 家族荣耀2
◎年  代 2024
◎产  地 中国大陆 / 中国香港
◎类  别 剧情
◎语  言 粤语
◎IMDb链接 https://www.imdb.com/title//
◎豆瓣链接 https://movie.douban.com/subject/36191255/
◎导  演 蔡晶盛 Ching-Shing Choy
      陈新侠 Xinxia Chen
◎编  剧 黄国辉 Kowk Fai Huang
      萧光汉 Guanghan Xiao
      蔡淑贤 Suk Yin Choi
      廖雨琦
      苏侃风
      冯伟涛
◎演  员 佘诗曼 Charmaine Sheh
      林峯 Raymond Lam
      罗子溢 Chung Him Law
      罗嘉良 Gallen Law
      许绍雄 Siu-Hung Hui
      黄浩然 Raymond Wong Ho-Yin
      余安安 On-on Yu
      张凤妮 Betsy Cheung
      陈静 Dada Chan
      梁靖琪 Toby Leung
      陈滢 Jeannie Chan
      王敏奕 Venus Wong
      吴岱融 Hugo Ng Doi-Yung
      刘江 Kong Lau
      龚慈恩 Mimi Kung
      刘浩龙 Wilfred Lau
      梁诺妍 Inez Leong

◎简  介
    豪门丘氏素来以重男轻女闻名,众所周知丘家产业会由第三代唯一的男孙丘智斌(罗子溢 饰)继承。丘老太爷因中风昏迷,一纸由其亲笔签署的委托书震惊众人:他竟然委托长孙女丘皓儿(佘诗曼 饰)代他执行集团主席一职。但这份委托书并没有把丘皓儿送往权力的高峰,而是推入了风暴的中心。

部分资源为软字幕,移动端推荐播放器:MxPlayer,nPlayer,infuse ,其他播放器请自行尝试。

部分资源为软字幕,电脑端推荐播放器:PotPlayer,完美解码,KMPLAYER,其他播放器请自行尝试。

下载端推荐纯BT下载软件:qBittorrent,Bitcomet,uTorrent ,其他下载软件请自行尝试。不支持吸血迅雷。

##### MediaInfo ######
General
Unique ID : 102265599586869700280410680491502945504 (0x4CEFA35768B988588B16802B541744E0)
Complete name : Modern.Dynasty.S02E16.2024.1080p.WEB-DL.H264.AAC.2Audio-BlackTV.mkv
Duration : 44 min 29 s
Overall bit rate : 946 kb/s

Video
ID : 1
Format : AVC
Format/Info : Advanced Video Codec
Format profile : High@L5
Format settings : CABAC / 5 Ref Frames
Format settings, CABAC : Yes
Format settings, Reference frames : 5 frames
Codec ID : V_MPEG4/ISO/AVC
Duration : 44 min 29 s
Bit rate : 751 kb/s
Width : 1 920 pixels
Height : 1 080 pixels
Display aspect ratio : 16:9
Frame rate mode : Constant
Frame rate : 25.000 FPS
Color space : YUV
Chroma subsampling : 4:2:0
Bit depth : 8 bits
Scan type : Progressive
Bits/(Pixel*Frame) : 0.014
Stream size : 239 MiB (79%)
Language : Chinese
Default : Yes
Forced : No
Color range : Limited
Color primaries : BT.709
Transfer characteristics : BT.709
Matrix coefficients : BT.709
VENDOR_ID : [0][0][0][0]

Audio #1
ID : 2
Format : AAC LC
Format/Info : Advanced Audio Codec Low Complexity
Codec ID : A_AAC-2
Duration : 44 min 29 s
Bit rate : 96.0 kb/s
Channel(s) : 2 channels
Channel layout : L R
Sampling rate : 44.1 kHz
Frame rate : 43.066 FPS (1024 SPF)
Compression mode : Lossy
Stream size : 30.5 MiB (10%)
Title : Cantonese [AAC2.0]
Language : Chinese
Default : Yes
Forced : No

Audio #2
ID : 3
Format : AAC LC
Format/Info : Advanced Audio Codec Low Complexity
Codec ID : A_AAC-2
Duration : 44 min 29 s
Bit rate : 96.0 kb/s
Channel(s) : 2 channels
Channel layout : L R
Sampling rate : 44.1 kHz
Frame rate : 43.066 FPS (1024 SPF)
Compression mode : Lossy
Stream size : 30.5 MiB (10%)
Title : Mandarin [AAC2.0]
Language : Chinese
Default : No
Forced : No
VENDOR_ID : [0][0][0][0]

Menu
00:05:39.251 : zh:芷岚与丘守义起争执 芷岚不是亲生女儿
00:11:10.370 : zh:芷岚心情郁闷饮酒 丘守义前来安慰
00:22:46.276 : zh:商场维修进度慢 皓儿担心商户没生计
00:32:44.418 : zh:朱丽琪欲离开丘守仁 二人解开心结


点击图片可查看大图

软字幕无法在截图上展现,HDR版本/杜比视界版本截图会出现颜色异常,请使用支持的设备播放!



1 个附件 售价 大小 下载 时间

Modern.Dynasty.S02.2024.1080p.WEB-DL.H264.AAC.2Audio-BlackTV[1LOU.ME].torrent 0 金币 3.24K 294 次 1月前

#1楼
发帖时间:2024-05-21 12:33:27   |   回复数:0
游客组